#TITLE:He Said , She Said;
#SUBTITLE:;
#ARTIST:Ashley Tisdale;
#TITLETRANSLIT:;
#SUBTITLETRANSLIT:;
#ARTISTTRANSLIT:Ashley Tisdale;
#CREDIT:;
#BANNER:He Said , She Said-bn.png;
#BACKGROUND:He Said , She Said-bg.png;
#LYRICSPATH:;
#CDTITLE:;
#MUSIC:He Said , She Said.mp3;
#OFFSET:0.000;
#SAMPLESTART:37.198;
#SAMPLELENGTH:12.000;
#SELECTABLE:YES;
#BPMS:0.000=161.300,298.667=80.080,320.750=97.300,321.000=161.300;
#STOPS:;
#BGCHANGES:;
// cache tags:
#FIRSTBEAT:10.250;
#LASTBEAT:476.000;
#SONGFILENAME:Songs/nhac/he said she said/He Said , She Said.sm;
#HASMUSIC:1;
#HASBANNER:1;
#MUSICLENGTH:187.252;
// end cache tags

//---------------dance-single - ----------------
#NOTES:
     dance-single:
     :
     Hard:
     12:
     1.000,1.000,1.000,0.881,1.000,1093.000,267.000,165.000,0.000,158.000:
0000
0000
0000
0000
,
0000
0000
0000
0000
,
0000
0000
0000
0000
0000
0000
0000
0000
0000
0021
0000
0000
0000
0000
0000
0000
,
0000
0000
0000
0000
0000
0000
0000
0000
0000
1131
0000
0000
0000
0000
0000
0000
0100
0000
0000
0000
0010
0000
0000
0000
0001
0000
0000
0000
0100
0000
0000
0000
0010
0000
0000
0000
1000
0000
0000
0000
0100
0000
0000
0000
1000
0000
0000
0000
,
0010
1001
0010
0100
0001
1010
0000
1101
0000
0000
0100
0011
,
0100
1000
0010
0100
0001
0010
1000
0010
0100
0001
0100
0010
,
1011
0000
0001
1000
0100
0010
1000
0100
1000
0001
0100
0010
,
0100
1000
0001
0100
0010
1100
0001
0010
0100
1000
0010
1000
,
0100
0010
0001
0010
0100
1010
0100
1010
0001
0000
1111
0000
,
0010
0100
0001
0100
0010
1000
0100
0010
0100
1000
0001
0010
,
0100
0010
0101
0100
0010
0100
1000
0010
0100
0001
0001
0010
,
0100
0100
1000
0100
1000
0010
0100
1011
0000
0001
0010
0100
,
1000
0100
0010
0010
0001
0100
0100
1000
1000
0010
0100
0010
,
0100
1000
0010
0100
0001
0100
0010
1000
0100
0010
0001
0010
,
0001
0020
0000
0000
0000
1131
0000
0010
0100
1000
0001
0010
,
0100
1000
0100
0010
0001
0010
1100
0010
0000
1111
0000
0000
,
1000
0010
0001
0100
1000
0010
0100
1000
0100
1000
0101
0010
,
0100
0001
0000
1111
0000
0001
0100
1000
0010
0100
0001
0010
,
0100
1000
0100
1100
1000
0001
0010
0000
1111
0000
0001
0100
,
0011
1000
0001
0110
0100
1000
0101
0010
0100
0011
0100
0010
,
1100
0010
0100
1000
0010
0001
0010
0100
0010
0001
0010
0001
,
0010
1100
0010
1000
0000
1111
0000
1000
0010
0100
0001
0010
,
0100
0000
0000
0000
1000
0000
0000
0000
0100
0000
0000
0000
0010
0000
0000
0000
0001
0000
0000
0000
0010
0000
0000
0000
0100
0000
0000
0000
1000
0000
0000
0000
0010
0000
0000
0000
0000
0000
0000
1111
0000
0000
0000
0000
0001
0000
0000
0000
,
0010
0001
1000
0100
1000
0010
0100
0010
0001
0010
0100
1001
,
0010
0100
0000
1111
0000
0001
0010
0100
1000
0001
1000
0010
,
0100
0001
0010
0100
0010
0001
0000
2110
0000
0002
0003
0200
,
0300
0020
0030
0002
0003
0200
0300
0020
0030
0002
0003
0000
,
3121
0000
2000
3000
0200
0300
2000
3000
0200
0300
0002
0003
,
0200
0300
2000
3000
1132
0000
0020
0030
0200
0300
2000
3000
,
0020
0030
0200
0300
2000
3000
0020
0030
0200
0300
2023
0000
,
0000
0000
3232
0000
0000
0000
2323
0000
0000
0000
3232
0000
,
0000
0000
1313
0000
2110
0000
0002
0003
0200
0300
0020
0030
,
0200
0300
0002
0003
0020
0030
0002
0003
3210
0000
2000
3000
,
0020
0030
2000
3000
0002
0003
2000
3000
0002
0003
2000
3000
,
0322
0003
0200
0300
0002
0003
0200
0300
2000
3000
0002
0003
,
0200
0300
0002
0003
2000
3000
1131
0000
1000
0000
0101
0000
,
0010
0000
1100
0000
0001
0000
0110
0000
0000
0111
0000
2001
,
0100
0010
0001
0100
0010
0100
0010
0001
0010
0100
0010
0100
,
0010
0001
3010
1111
0000
0001
0100
0010
1000
0100
1000
0010
,
0100
1000
0101
0010
0100
0010
0001
0000
1111
0000
1000
0100
,
1000
0010
0100
0010
1000
0100
0011
0100
1000
0100
0010
0001
,
0000
1111
0000
1010
0100
1000
0100
0001
0010
1000
0100
1001
,
0010
0100
1000
0010
0100
0001
0100
1000
0100
0010
0001
0010
,
0100
1000
0100
0010
0100
1000
0100
0010
0100
0010
0001
1111
,
0000
0010
0100
0001
1000
0100
0100
0010
0001
0001
0100
0010
,
0010
0100
1000
1111
0000
0101
0010
0001
0100
1000
0010
0010
,
0100
1000
1000
0010
0001
0010
0100
1000
1111
0000
0011
0100
,
1000
0010
0100
1000
1000
0010
0100
0100
0001
0100
0010
0100
,
0001
0010
0100
0010
0100
1000
0100
1000
0010
0010
0001
0100
,
0100
0010
1000
0100
0010
0000
1111
0000
0101
0010
0100
1010
,
0001
0000
0010
0000
1100
0000
0010
0000
0100
0000
0011
0000
0100
0000
1000
0000
0101
0000
1000
0000
0000
1111
0000
0000
,
0000
0101
0010
0100
0011
0100
0001
0110
1000
0010
1100
0010
,
0100
1010
0000
1111
0000
1100
0010
0100
1001
0010
0001
0110
,
1000
0100
0011
0100
0010
0101
0010
0000
1111
0000
1001
0010
,
0001
1010
0100
1000
0101
0010
0100
0011
0100
1000
1100
0010
,
0100
1011
0100
2000
0010
0100
0001
0010
0100
0001
0100
0010
,
0100
0001
0010
0001
0010
0100
0111
0100
0010
0001
0010
0100
,
0010
3102
0010
1000
0100
1000
0100
1000
0010
0100
1000
1110
,
0010
0100
0010
0100
0010
0100
1203
0010
1000
0001
0010
1000
,
0010
1000
0001
1011
0010
1000
0010
0001
0010
1000
0010
0001
,
0010
1000
0010
1000
0001
1000
0010
1312
0000
0200
0300
2000
,
3000
0020
0030
0200
0300
2000
3000
0020
0030
0200
0300
2000
,
3000
1123
0000
0002
0003
2000
3000
0200
0300
0002
0003
0200
,
0300
2000
3000
0200
0300
2000
3000
0231
0000
0002
0003
0020
,
0030
0002
0003
2000
3000
0020
0030
2000
3000
0002
0003
2300
,
0000
0000
3000
2020
0000
0000
3030
0022
0000
0000
0033
2002
,
0000
0000
3013
0000
1111
0000
1000
0000
0111
0000
1000
0000
,
1101
0000
0100
0000
1011
0000
1000
0000
1011
0000
0100
0000
,
0111
0000
0010
0000
1110
0000
1000
0000
1101
0000
0010
0000
,
1101
0000
1000
0000
1011
0000
0100
0000
1110
0000
0001
0000
,
1101
0000
0010
0000
0111
0000
0001
0000
1101
0000
0001
0000
,
0101
0000
0000
0010
0000
0000
0100
0000
0000
0000
0000
0000
0001
0000
0000
0000
0000
0000
0000
0000
1011
0000
0000
0000
0000
0000
0000
0000
0100
0000
0000
0000
0000
0000
0000
0000
1011
0000
0000
0000
0000
0000
0000
0000
1111
0000
0000
0000
,
0100
0010
0100
0010
1111
0100
0010
0100
0010
1111
0100
0010
,
0100
0010
1111
0000
1111
0000
1111
0000
1111
0000
1111
0000
,
1111
0000
0000
0000
0000
0000
0000
0000
1111
0000
0000
0000
0000
0000
0000
0000
1011
0000
0000
0000
0000
0000
0000
0000
0001
0000
0000
0000
0000
0000
0000
0000
0000
2011
0000
0000
0000
0000
0000
0000
0000
0000
0000
0000
0000
0000
0000
0000
,
0000
0000
0111
0000
0011
0010
3211
0000
0000
0000
0000
0000
0000
1011
0000
0011
,
1000
1321
0000
0000
0000
0000
0000
0000
1101
0000
0000
0101
1000
1132
0000
0000
,
0000
0100
1110
0100
1213
0000
0000
1011
,
0010
0000
1010
1321
0000
0000
0000
0000
0000
0000
1101
0000
0000
0100
1132
0000
,
0000
0000
0000
0000
0020
1100
0000
0000
0100
2233
0000
0000
0000
0000
0000
0000
,
0011
0000
0000
0001
0000
0000
3310
0000
0000
0100
0000
0000
1111
0000
0000
0000
0000
0000
0000
0000
0001
0000
0000
0000
0010
0000
0000
0000
1001
0000
0000
0000
0100
0000
0000
0000
0010
0000
0000
0000
0100
0000
0000
0000
0100
0000
0000
0000
,
0010
1000
1000
0100
0010
0100
1000
0100
1111
0000
0101
0010
,
0100
0001
0110
1000
1000
0100
0001
0001
0010
0100
1000
0001
,
0100
1111
0000
1010
0100
1000
0100
0010
0100
1000
1000
0010
,
0100
0100
1000
0010
0001
0100
1111
0000
1100
0010
0010
0100
,
0100
1100
1100
0110
0110
0011
0011
1010
1010
0100
0001
1111
,
0000
0001
0010
0100
1010
0100
0001
0010
0100
0010
0100
1000
,
0101
0010
0100
0010
1111
0000
0001
0100
0010
1000
0110
0001
,
0100
0010
1000
0101
0010
0100
1000
0101
1000
1111
0000
0110
,
0001
0110
0001
1000
0110
1000
0010
0101
1000
1100
0010
0100
,
1000
0100
1111
0000
0001
0001
0010
0010
0100
0100
1000
1000
,
0100
0100
1000
1000
0010
0010
0001
0001
0100
0010
1000
0010
,
0100
0001
0010
0100
0010
0001
0010
0100
1000
0100
0110
1002
,
0000
0220
0330
2200
3300
2020
3030
2200
3300
0220
0330
2200
,
3300
0220
0330
1213
0000
0022
0033
2002
3003
2020
3030
2002
,
3003
0022
0033
2002
3003
0022
0033
2020
3030
2311
0000
0202
,
0303
0022
0033
0202
0303
0220
0330
0022
0033
0220
0330
0022
,
0033
0000
3221
0000
0000
0000
0000
0000
0000
0000
0000
0000
2332
0000
0000
0000
0000
0000
0000
0000
0000
3223
0000
0000
,
0000
0000
0000
0000
0000
0000
0000
0000
0000
2332
0000
0000
0000
0000
0000
0000
0000
0000
0000
0000
0000
0000
0000
0000
0000
0000
0000
3113
0000
0000
0000
0000
0000
0000
0000
0000
1101
0000
0000
0000
0010
0000
0000
0000
0100
0000
0000
0000
,
0001
1110
0001
0100
1011
0100
0010
1101
0010
0100
1011
0010
,
0100
1011
0100
0001
1110
0001
0010
1101
0010
0100
1011
0100
,
0001
1110
0001
0010
1101
0010
0001
1110
0001
0100
1011
0100
,
1000
0111
1000
0100
1011
0100
1000
0111
1000
0100
0010
0001
,
0010
0100
1000
0100
0010
0001
0010
0100
1000
0100
0010
0001
,
0010
0100
1111
0001
1000
0001
1000
1111
0001
1000
0001
1111
,
1000
0001
1000
1111
0110
1001
0000
0101
1000
0010
0001
0100
,
0010
1000
0001
0010
1000
0100
0010
1001
0000
1100
0000
1111
,
0000
0001
0010
0100
1000
0100
0010
0001
0010
0100
1000
0000
,
0010
0000
0011
0000
1110
0000
0001
0010
0100
1000
0100
0010
,
0001
0100
0010
1000
0100
0010
0001
0100
1100
1011
0000
1100
,
0010
0100
1000
0100
0010
0001
0010
0100
1000
0010
0101
0000
,
0110
0000
1101
0000
0110
1000
0100
1010
0001
0010
0101
1000
,
0100
0011
0100
1000
0101
0011
0110
1101
0010
0100
0001
1000
,
0100
0010
0101
0101
1000
0110
0110
0001
0010
0100
1000
0100
,
1000
0010
0001
0100
0010
1000
0011
0011
1000
0100
1001
1001
,
0010
0100
1000
0100
0010
0001
0010
0100
1000
0010
0001
1100
,
1100
0010
0101
0101
0010
0100
1000
0100
0010
0001
0110
0001
,
1100
0001
1010
0001
0110
0001
1010
0001
1100
0001
1010
0001
,
2200
0000
0000
0000
0010
0000
0000
0000
0000
0000
0000
0000
,
3300
0000
0000
0000
;
